Qualitätsunterschiede pro Aufnahme

Kommentare

1 Kommentar

  • Avatar
    AudialsOneHD

    Ich habe jetzt noch einmal weiter getestet. Und habe das gleiche Album an zwei verschiedenen Tagen heruntergeladen. Danach das Dynamic Range Meter drüberlaufen lassen (keine aktuelle Version - ich weiß)

    foobar2000 1.6.8 / Dynamic Range Meter 1.1.1
    log date: 2021-12-14 20:53:10

    DR Peak RMS Duration Track
    -----------------------------------------------
    DR11 -2.35 dB -14.47 dB 3:41 01-
    DR10 -3.81 dB -14.76 dB 3:15 02-
    DR11 -2.11 dB -14.57 dB 3:04 03-
    DR11 -1.77 dB -14.67 dB 3:31 04-
    DR10 -1.10 dB -14.11 dB 7:00 05-
    DR12 0.00 dB -14.48 dB 3:03 06-
    DR12 -0.85 dB -14.72 dB 5:09 07-
    DR9 -4.11 dB -14.68 dB 4:31 08-
    DR10 -2.28 dB -14.55 dB 3:19 09-
    DR12 -0.25 dB -14.49 dB 3:43 10-
    DR10 -3.08 dB -15.50 dB 3:00 11-
    DR11 -0.95 dB -14.55 dB 1:50 12-
    DR11 -2.34 dB -14.54 dB 6:55 13-
    DR11 -1.45 dB -14.76 dB 4:30 14-
    DR8 -4.42 dB -14.59 dB 4:33 15-
    DR11 -1.30 dB -14.49 dB 6:22 16-
    DR12 -0.53 dB -15.27 dB 4:43 17-
    DR11 -2.13 dB -15.03 dB 3:20 18-
    ------------------------------------------------

    Number of tracks: 18
    Official DR value: DR11

    Samplerate: 44100 Hz
    Channels: 2
    Bits per sample: 16
    Bitrate: 991 kbps
    Codec: FLAC
    ================================================

    foobar2000 1.6.8 / Dynamic Range Meter 1.1.1
    log date: 2021-12-18 12:04:46

    DR Peak RMS Duration Track
    ------------------------------------------------
    DR9 -4.73 dB -14.50 dB 3:41 01-
    DR10 -3.51 dB -14.76 dB 3:14 02-
    DR10 -2.70 dB -14.62 dB 3:04 03-
    DR9 -4.32 dB -14.69 dB 3:31 04-
    DR9 -2.84 dB -14.11 dB 7:00 05-
    DR10 -2.98 dB -14.54 dB 3:04 06-
    DR10 -2.71 dB -14.74 dB 5:08 07-
    DR9 -4.64 dB -14.68 dB 4:31 08-
    DR9 -5.03 dB -14.57 dB 3:19 09-
    DR10 -2.96 dB -14.51 dB 3:43 10-
    DR8 -5.55 dB -15.53 dB 3:00 11-
    DR9 -2.47 dB -14.57 dB 1:50 12-
    DR9 -4.78 dB -14.54 dB 6:55 13-
    DR9 -3.94 dB -14.77 dB 4:29 14-
    DR8 -4.88 dB -14.59 dB 4:33 15-
    DR9 -3.28 dB -14.50 dB 6:23 16-
    DR11 -2.28 dB -15.28 dB 4:43 17-
    DR8 -5.03 dB -15.06 dB 3:21 18-
    --------------------------------------------

    Number of tracks: 18
    Official DR value: DR9

    Samplerate: 44100 Hz
    Channels: 2
    Bits per sample: 16
    Bitrate: 1014 kbps
    Codec: FLAC
    ==============================================

    Die Werte bei der zweiten Aufnahme sind durchgehend schlechter (obwohl höhere Bitrate)

    Was kann der Grund dafür sein? 

    Anbei die Grafiken aus Spek (jeweils der erste Song, links die erste Aufnahme). 

    Hängt die Qualität der Aufnahme von der in Audials für die Wiedergabe verwendeten Soundkarte ab?

    0
    Aktionen für Kommentare Permalink

Bitte melden Sie sich an, um einen Kommentar zu hinterlassen.